Под куполом / Under the Dome

salexa

Ословед
HDTV 1080i - MPEG2

Добавлены серии 6 и 7:
Примечания (от автора раздачи на rutracker.org):
Видео - чистый поток с телеканала "CBS HD". До выхода BluRay (если таковой вообще будет) это является максимальным качеством из существующих на сегодняшний день.
Русская звуковая дорожка (LostFilm) сделана путем наложения чистого голоса озвучивателей на центральный канал оригинальной дорожки. Качество идентично английской звуковой дорожке.


Качество: HDTV, 1080i
Формат: MKV
Видео: MPEG-2, ~15.6 Мбит/с, 1920x1080, 29.97 кадр/с
Аудио #1: Russian, AC3, 384 кбит/с, 6 ch, 48 кГц, 16 бит - профессиональный многоголосый (LostFilm)
Аудио #2: English, AC3, 384 кбит/с, 6 ch, 48 кГц, 16 бит - оригинал
Субтитры #1: русские (UTF-8) - Анастасия Кисиленко
Субтитры #2: английские (UTF-8)
Главы: 6 в каждой серии


(на примере серии 01)

Общее
Формат : Matroska
Версия формата : Version 4 / Version 2
Размер файла : 4,97 Гбайт
Продолжительность : 42 м.
Режим общего битрейта : Переменный
Общий поток : 16,7 Мбит/сек
Дата кодирования : UTC 2013-07-20 14:02:45
Программа кодирования : mkvmerge v6.3.0 ('You can't stop me!') built on Jun 28 2013 20:09:41
Библиотека кодирования : libebml v1.3.0 + libmatroska v1.4.0

Видео
Идентификатор : 1
Формат : MPEG Video
Версия формата : Version 2
Профиль формата : Main@High
Параметр BVOP формата : Нет
Параметр матрицы формата : Выборочная
Идентификатор кодека : V_MPEG2
Идентификатор кодека/Информация : MPEG 1 or 2 Video
Продолжительность : 42 м.
Вид битрейта : Переменный
Битрейт : 15,6 Мбит/сек
Максимальный битрейт : 17,7 Мбит/сек
Ширина : 1920 пикселей
Высота : 1080 пикселей
Соотношение сторон : 16:9
Режим частоты кадров : Постоянный
Частота кадров : 29,970 кадров/сек
Стандарт вещания : Component
Цветовое пространство : YUV
Субдискретизация насыщенности : 4:2:0
Битовая глубина : 8 бит
Тип развёртки : Чересстрочная
Порядок развёртки : Верхнее поле первое
Метод сжатия : С потерями
Бит/(Пиксели*Кадры) : 0.251
Временной код первого кадра : 00:00:00;17
Оригинал временного кода : Group of pictures header
Размер потока : 4,64 Гбайт (93%)
Default : Да
Forced : Нет
Основные цвета : BT.709
Характеристики трансфера : BT.709
Коэффициенты матрицы : BT.709

Аудио #1
Идентификатор : 2
Формат : AC-3
Формат/Информация : Audio Coding 3
Расширение режима : CM (complete main)
Параметр Endianness формата : Big
Идентификатор кодека : A_AC3
Продолжительность : 42 м.
Вид битрейта : Постоянный
Битрейт : 384 Кбит/сек
Каналы : 6 каналов
Расположение каналов : Front: L C R, Side: L R, LFE
Частота : 48,0 КГц
Битовая глубина : 16 бит
Метод сжатия : С потерями
Задержка видео : -18 мс.
Размер потока : 117 Мбайт (2%)
Заголовок : Lostfilm
Язык : Russian
Default : Да
Forced : Нет

Аудио #2
Идентификатор : 3
Формат : AC-3
Формат/Информация : Audio Coding 3
Расширение режима : CM (complete main)
Параметр Endianness формата : Big
Идентификатор кодека : A_AC3
Продолжительность : 42 м.
Вид битрейта : Постоянный
Битрейт : 384 Кбит/сек
Каналы : 6 каналов
Расположение каналов : Front: L C R, Side: L R, LFE
Частота : 48,0 КГц
Битовая глубина : 16 бит
Метод сжатия : С потерями
Задержка видео : -18 мс.
Размер потока : 117 Мбайт (2%)
Язык : English
Default : Нет
Forced : Нет

Текст #1
Идентификатор : 4
Формат : UTF-8
Идентификатор кодека : S_TEXT/UTF8
Идентификатор кодека/Информация : UTF-8 Plain Text
Язык : Russian
Default : Нет
Forced : Нет

Текст #2
Идентификатор : 5
Формат : UTF-8
Идентификатор кодека : S_TEXT/UTF8
Идентификатор кодека/Информация : UTF-8 Plain Text
Язык : English
Default : Нет
Forced : Нет

Меню
00:00:00.000 : en:Chapter 1
00:10:31.864 : en:Chapter 2
00:16:39.872 : en:Chapter 3
00:26:07.704 : en:Chapter 4
00:33:34.255 : en:Chapter 5
00:42:04.712 : en:Chapter 6
 

    J._Hetfield

    очки: 9.999
    Нет комментариев

    BOBINA

    очки: 9.999
    Нет комментариев

    Flawless Viktor

    очки: 9.999
    Нет комментариев

Stal3var

Ословед
Поражаюсь, сериал всё лучше и лучше становиться! Очень круто
 

Radix

Ословед




Under.the.Dome.S01E08.rus.LostFilm.TV.avi 539.06 Мб 206.[88-91]


 

    SINHRON

    очки: 2.190
    Нет комментариев

    galatea

    очки: 2.261
    Нет комментариев

    Flawless Viktor

    очки: 9.999
    Нет комментариев

Vlad D

Ословед

    GREShNIK

    очки: 95
    Нет комментариев

    _JoN`

    очки: 394
    хах) возможно, (там не все так просто хД)

Flawless Viktor

2015
Модератор
10 серия прям :wow:, обожаю вот такие вещи, твою же ... как офигенно, жду продолжения, Кинг красавец все-таки.
 
Сверху